Free 4 You
ประกาศ!!! สำหรับท่านที่เข้ามาชมนะครับ ต้องสมัครสมาชิกและ Login เข้ามาก่อน ถึงจะสามารถกดลิงค์เพื่อโหลดได้นะครับ

จึงเรียนมาเพื่อทราบโดยทั่วกัน...

ช่วยกันกดไลค์เพจด้วยนะจ้าา จะได้ไว้ติดตามข่าวสารเน้ออ

>> https://www.facebook.com/pages/Free4You/112009912484692 <<

Free 4 You

โหลดการ์ตูน อ่านการ์ตูน โหลดหนัง ฟรี!!
 
บ้านCalendarช่วยเหลือค้นหารายชื่อสมาชิกกลุ่มผู้ใช้สมัครสมาชิก(Register)เข้าสู่ระบบ(Log in)

Share | 
 

 [MINI-HD] JOURNEY TO THE CHRISTMAS STAR (2012) ศึกพิภพแม่มดมหัศจรรย์ [1080P HQ] [เสียงไทยมาสเตอร์ 5.1 + ENG DTS] [บรรยายไทย + อังกฤษ]

อ่านหัวข้อก่อนหน้า อ่านหัวข้อถัดไป Go down 
ผู้ตั้งข้อความ
Admin
Administrators
Administrators
avatar

จำนวนข้อความ : 294
Join date : 25/08/2015

ตั้งหัวข้อเรื่อง: [MINI-HD] JOURNEY TO THE CHRISTMAS STAR (2012) ศึกพิภพแม่มดมหัศจรรย์ [1080P HQ] [เสียงไทยมาสเตอร์ 5.1 + ENG DTS] [บรรยายไทย + อังกฤษ]   Wed Aug 26, 2015 5:34 pm



ภาพยนตร์แฟนตาซีผจญภัยสุดตื่นเต้น ของสาวน้อยวัย 14 ปี ต้องออกค้นหาดาวคริสต์มาสที่หายไปให้พบ เพื่อช่วยธิดาของพระราชาให้พ้นจากการหลับใหลมายาวนาน เป็นผลงานการกำกับของ Nils Gaup ผู้ที่เคยได้รับการเสนอชื่อเข้าชิงรางวัลออสการ์สาขาภาพยนตร์ต่างประเทศยอดเยี่ยมจากเรื่อง Pathfinder มาแล้ว!!!

Format                                   : Matroska
Format version                           : Version 4 / Version 2
File size                                : 3.45 GiB
Duration                                 : 1h 16mn
Overall bit rate                         : 6 412 Kbps
Movie name                               : [HQ] Journey.to.the.Christmas.Star.2013.1080p.BrRip.x264.DTS_by NongZEZA@CtHts
Encoded date                             : UTC 2010-02-22 21:41:31
Writing application                      : mkvmerge v5.9.0 ( On The Loose ) built on Dec  9 2012 15:37:01
Writing library                          : libebml v1.3.0 + libmatroska v1.4.0


Video
ID                                       : 1
Format                                   : AVC
Format/Info                              : Advanced Video Codec
Format profile                           : High@L4.0
Format settings, CABAC                   : Yes
Format settings, ReFrames                : 4 frames
Codec ID                                 : V_MPEG4/ISO/AVC
Duration                                 : 1h 16mn
Bit rate                                 : 5 055 Kbps
Width                                    : 1 920 pixels
Height                                   : 808 pixels
Display aspect ratio                     : 2.40:1
Frame rate mode                          : Constant
Frame rate                               : 24.000 fps
Color space                              : YUV
Chroma subsampling                       : 4:2:0
Bit depth                                : 8 bits
Scan type                                : Progressive
Bits/(Pixel*Frame)                       : 0.136
Stream size                              : 2.64 GiB (77%)
Title                                    : [HQ] Journey.to.the.Christmas.Star.2013.1080p.BrRip.x264.DTS_by NongZEZA@CtHts
Writing library                          : x264 core 130 r2273 b3065e6
Encoding settings                        : cabac=1 / ref=3 / deblock=1:0:0 / analyse=0x3:0x113 / me=umh / subme=10 / psy=1 / psy_rd=1.00:0.00 / mixed_ref=1 / me_range=24 / chroma_me=1 / trellis=2 / 8x8dct=1 / cqm=0 / deadzone=21,11 / fast_pskip=1 / chroma_qp_offset=-2 / threads=12 / lookahead_threads=1 / sliced_threads=0 / nr=0 / decimate=1 / interlaced=0 / bluray_compat=0 / constrained_intra=0 / bframes=3 / b_pyramid=2 / b_adapt=1 / b_bias=0 / direct=1 / weightb=1 / open_gop=0 / weightp=2 / keyint=240 / keyint_min=24 / scenecut=40 / intra_refresh=0 / rc_lookahead=40 / rc=2pass / mbtree=1 / bitrate=5055 / ratetol=1.0 / qcomp=0.60 / qpmin=0 / qpmax=69 / qpstep=4 / cplxblur=20.0 / qblur=0.5 / ip_ratio=1.40 / aq=1:1.00
Language                                 : English
Default                                  : Yes
Forced                                   : No
Color primaries                          : BT.709
Transfer characteristics                 : BT.709
Matrix coefficients                      : BT.709


Audio #1
ID                                       : 2
Format                                   : AC-3
Format/Info                              : Audio Coding 3
Mode extension                           : CM (complete main)
Format settings, Endianness              : Big
Codec ID                                 : A_AC3
Duration                                 : 1h 16mn
Bit rate mode                            : Constant
Bit rate                                 : 224 Kbps
Channel(s)                               : 2 channels
Channel positions                        : Front: L R
Sampling rate                            : 48.0 KHz
Bit depth                                : 16 bits
Compression mode                         : Lossy
Delay relative to video                  : 4ms
Stream size                              : 123 MiB (3%)
Title                                    : Thai DVD Master
Language                                 : Thai
Default                                  : Yes
Forced                                   : Yes


Audio #2
ID                                       : 3
Format                                   : DTS
Format/Info                              : Digital Theater Systems
Mode                                     : 16
Format settings, Endianness              : Big
Codec ID                                 : A_DTS
Duration                                 : 1h 16mn
Bit rate mode                            : Constant
Bit rate                                 : 755 Kbps
Channel(s)                               : 6 channels
Channel positions                        : Front: L C R, Side: L R, LFE
Sampling rate                            : 48.0 KHz
Bit depth                                : 24 bits
Compression mode                         : Lossy
Stream size                              : 415 MiB (12%)
Title                                    : Norwegian DTS
Language                                 : Norwegian
Default                                  : No
Forced                                   : No


Audio #3
ID                                       : 4
Format                                   : AC-3
Format/Info                              : Audio Coding 3
Mode extension                           : CM (complete main)
Format settings, Endianness              : Big
Codec ID                                 : A_AC3
Duration                                 : 1h 16mn
Bit rate mode                            : Constant
Bit rate                                 : 384 Kbps
Channel(s)                               : 6 channels
Channel positions                        : Front: L C R, Side: L R, LFE
Sampling rate                            : 48.0 KHz
Bit depth                                : 16 bits
Compression mode                         : Lossy
Stream size                              : 211 MiB (6%)
Title                                    : English
Language                                 : English
Default                                  : No
Forced                                   : No


Text
ID                                       : 5
Format                                   : UTF-8
Codec ID                                 : S_TEXT/UTF8
Codec ID/Info                            : UTF-8 Plain Text
Title                                    : English
Language                                 : English
Default                                  : No
Forced                                   : No












***:: Part :1 ::***
***:: Part :2 ::***
***:: Part :3 ::***
***:: Part :4 ::***

RAR Password : ONE3UP.COM
ขึ้นไปข้างบน Go down
ดูข้อมูลส่วนตัว http://free4you.thai-forum.net
 
[MINI-HD] JOURNEY TO THE CHRISTMAS STAR (2012) ศึกพิภพแม่มดมหัศจรรย์ [1080P HQ] [เสียงไทยมาสเตอร์ 5.1 + ENG DTS] [บรรยายไทย + อังกฤษ]
อ่านหัวข้อก่อนหน้า อ่านหัวข้อถัดไป ขึ้นไปข้างบน 
หน้า 1 จาก 1
 Similar topics
-
» (15942347) first newlook:ว้ายตาย (เปลี่ยนรูปกับเพิ่มอาวุธ)

Permissions in this forum:คุณไม่สามารถพิมพ์ตอบ
Free 4 You :: Movie :: โหลดหนัง-
ไปที่: