Free 4 You
ประกาศ!!! สำหรับท่านที่เข้ามาชมนะครับ ต้องสมัครสมาชิกและ Login เข้ามาก่อน ถึงจะสามารถกดลิงค์เพื่อโหลดได้นะครับ

จึงเรียนมาเพื่อทราบโดยทั่วกัน...

ช่วยกันกดไลค์เพจด้วยนะจ้าา จะได้ไว้ติดตามข่าวสารเน้ออ

>> https://www.facebook.com/pages/Free4You/112009912484692 <<

Free 4 You

โหลดการ์ตูน อ่านการ์ตูน โหลดหนัง ฟรี!!
 
บ้านCalendarช่วยเหลือค้นหารายชื่อสมาชิกกลุ่มผู้ใช้สมัครสมาชิก(Register)เข้าสู่ระบบ(Log in)

Share | 
 

 [MINI-HD] EFFIE GRAY (2014) เอฟฟี่ เกรย์ ขีดชะตารักให้โลกรู้ [1080P HQ] [เสียงไทยมาสเตอร์ 5.1 + ENG DTS] [บรรยายไทย + อังกฤษ]

อ่านหัวข้อก่อนหน้า อ่านหัวข้อถัดไป Go down 
ผู้ตั้งข้อความ
Admin
Administrators
Administrators
avatar

จำนวนข้อความ : 294
Join date : 25/08/2015

ตั้งหัวข้อเรื่อง: [MINI-HD] EFFIE GRAY (2014) เอฟฟี่ เกรย์ ขีดชะตารักให้โลกรู้ [1080P HQ] [เสียงไทยมาสเตอร์ 5.1 + ENG DTS] [บรรยายไทย + อังกฤษ]   Wed Aug 26, 2015 4:59 pm



http://www.imdb.com/title/tt1605798/


สร้างจากชีวิตอื้อฉาวของบุคคลจริงที่ช็อคผู้คนในอังกฤษยุควิตอเรียน ว่าด้วยเรื่องราวของ เอฟฟี่ เกรย์ หญิงสาววัย 19 ที่แต่งงานกับนักวิจารณ์ศิลปะยุควิตอเรียนที่อายุมากกว่านามว่า จอนห์ รัสกิน โดยหลังจากแต่งงานได้ไม่นานเธอค่อยๆ เรียนรู้ว่าการใช้ชีวิตคู่กับชายคนนี้ไม่ได้มีความสุขอย่างที่คิด ยิ่งไปกว่านั้นเธอยังตกหลุมรักกับ จอนห์ เอเวอร์เร็ตต์ มิลลาส จิตรกรหนุ่มที่เธอเป็นแบบวาดให้ โดยปรารถนาครั้งนี้จุดประกายให้เธอมองหาจุดเปลี่ยนในชีวิตด้วยการก้าวเป็นผู้หญิงคนแรกในประวัติศาสตร์ที่ต้องการหย่าขาดจากสามี!!!

Format                                   : Matroska
Format version                           : Version 4 / Version 2
File size                                : 3.83 GiB
Duration                                 : 1h 48mn
Overall bit rate                         : 5 051 Kbps
Movie name                               : {MINI Super-HQ}_Effie.Gray.2014.1080p.BrRip.DTS.x264_NongZEZA@CtHts
Encoded date                             : UTC 2010-02-22 21:41:31
Writing application                      : mkvmerge v5.9.0 ( On The Loose ) built on Dec  9 2012 15:37:01
Writing library                          : libebml v1.3.0 + libmatroska v1.4.0
Attachment                               : Yes


Video
ID                                       : 1
Format                                   : AVC
Format/Info                              : Advanced Video Codec
Format profile                           : High@L4.0
Format settings, CABAC                   : Yes
Format settings, ReFrames                : 4 frames
Codec ID                                 : V_MPEG4/ISO/AVC
Duration                                 : 1h 48mn
Bit rate                                 : 3 848 Kbps
Width                                    : 1 920 pixels
Height                                   : 800 pixels
Display aspect ratio                     : 2.40:1
Frame rate mode                          : Constant
Frame rate                               : 24.000 fps
Color space                              : YUV
Chroma subsampling                       : 4:2:0
Bit depth                                : 8 bits
Scan type                                : Progressive
Bits/(Pixel*Frame)                       : 0.104
Stream size                              : 2.89 GiB (75%)
Title                                    : {MINI Super-HQ}_Effie.Gray.2014.1080p.BrRip.DTS.x264_NongZEZA@CtHts
Writing library                          : x264 core 130 r2273 b3065e6
Encoding settings                        : cabac=1 / ref=3 / deblock=1:0:0 / analyse=0x3:0x113 / me=umh / subme=11 / psy=1 / psy_rd=1.00:0.00 / mixed_ref=1 / me_range=32 / chroma_me=1 / trellis=2 / 8x8dct=1 / cqm=0 / deadzone=21,11 / fast_pskip=1 / chroma_qp_offset=-2 / threads=12 / lookahead_threads=1 / sliced_threads=0 / nr=0 / decimate=1 / interlaced=0 / bluray_compat=0 / constrained_intra=0 / bframes=3 / b_pyramid=2 / b_adapt=2 / b_bias=0 / direct=1 / weightb=1 / open_gop=0 / weightp=2 / keyint=240 / keyint_min=24 / scenecut=40 / intra_refresh=0 / rc_lookahead=40 / rc=2pass / mbtree=1 / bitrate=3848 / ratetol=1.0 / qcomp=0.60 / qpmin=0 / qpmax=69 / qpstep=4 / cplxblur=20.0 / qblur=0.5 / ip_ratio=1.40 / aq=1:1.00
Language                                 : English
Default                                  : Yes
Forced                                   : No


Audio #1
ID                                       : 2
Format                                   : AC-3
Format/Info                              : Audio Coding 3
Mode extension                           : CM (complete main)
Format settings, Endianness              : Big
Codec ID                                 : A_AC3
Duration                                 : 1h 48mn
Bit rate mode                            : Constant
Bit rate                                 : 384 Kbps
Channel(s)                               : 6 channels
Channel positions                        : Front: L C R, Side: L R, LFE
Sampling rate                            : 48.0 KHz
Bit depth                                : 16 bits
Compression mode                         : Lossy
Stream size                              : 298 MiB (8%)
Title                                    : Thai DVD Master
Language                                 : Thai
Default                                  : Yes
Forced                                   : Yes


Audio #2
ID                                       : 3
Format                                   : DTS
Format/Info                              : Digital Theater Systems
Mode                                     : 16
Format settings, Endianness              : Big
Codec ID                                 : A_DTS
Duration                                 : 1h 48mn
Bit rate mode                            : Constant
Bit rate                                 : 755 Kbps
Channel(s)                               : 6 channels
Channel positions                        : Front: L C R, Side: L R, LFE
Sampling rate                            : 48.0 KHz
Bit depth                                : 24 bits
Compression mode                         : Lossy
Stream size                              : 585 MiB (15%)
Title                                    : English DTS
Language                                 : English
Default                                  : No
Forced                                   : No


Text #1
ID                                       : 4
Format                                   : VobSub
Muxing mode                              : zlib
Codec ID                                 : S_VOBSUB
Codec ID/Info                            : The same subtitle format used on DVDs
Title                                    : Thai 480p
Language                                 : Thai
Default                                  : No
Forced                                   : No


Text #2
ID                                       : 5
Format                                   : VobSub
Muxing mode                              : zlib
Codec ID                                 : S_VOBSUB
Codec ID/Info                            : The same subtitle format used on DVDs
Title                                    : Thai 720p
Language                                 : Thai
Default                                  : No
Forced                                   : No


Text #3
ID                                       : 6
Format                                   : VobSub
Muxing mode                              : zlib
Codec ID                                 : S_VOBSUB
Codec ID/Info                            : The same subtitle format used on DVDs
Title                                    : Thai 1080p
Language                                 : Thai
Default                                  : Yes
Forced                                   : Yes


Text #4
ID                                       : 7
Format                                   : VobSub
Muxing mode                              : zlib
Codec ID                                 : S_VOBSUB
Codec ID/Info                            : The same subtitle format used on DVDs
Title                                    : Thai 1080p Yellow
Language                                 : Thai
Default                                  : No
Forced                                   : No


Text #5
ID                                       : 8
Format                                   : VobSub
Muxing mode                              : zlib
Codec ID                                 : S_VOBSUB
Codec ID/Info                            : The same subtitle format used on DVDs
Title                                    : Thai 1080p Out
Language                                 : Thai
Default                                  : No
Forced                                   : No


Text #6
ID                                       : 9
Format                                   : VobSub
Muxing mode                              : zlib
Codec ID                                 : S_VOBSUB
Codec ID/Info                            : The same subtitle format used on DVDs
Title                                    : Thai 1080p BIG
Language                                 : Thai
Default                                  : No
Forced                                   : No


Text #7
ID                                       : 10
Format                                   : VobSub
Muxing mode                              : zlib
Codec ID                                 : S_VOBSUB
Codec ID/Info                            : The same subtitle format used on DVDs
Title                                    : Thai 1080p Out [BIG]
Language                                 : Thai
Default                                  : No
Forced                                   : No


Text #8
ID                                       : 11
Format                                   : PGS
Muxing mode                              : zlib
Codec ID                                 : S_HDMV/PGS
Codec ID/Info                            : The same subtitle format used on BDs/HD-DVDs
Title                                    : Thai PGS
Language                                 : Thai
Default                                  : No
Forced                                   : No


Text #9
ID                                       : 12
Format                                   : PGS
Muxing mode                              : zlib
Codec ID                                 : S_HDMV/PGS
Codec ID/Info                            : The same subtitle format used on BDs/HD-DVDs
Title                                    : Thai PGS Yellow
Language                                 : Thai
Default                                  : No
Forced                                   : No


Text #10
ID                                       : 13
Format                                   : PGS
Muxing mode                              : zlib
Codec ID                                 : S_HDMV/PGS
Codec ID/Info                            : The same subtitle format used on BDs/HD-DVDs
Title                                    : Thai PGS Out
Language                                 : Thai
Default                                  : No
Forced                                   : No


Text #11
ID                                       : 14
Format                                   : UTF-8
Codec ID                                 : S_TEXT/UTF8
Codec ID/Info                            : UTF-8 Plain Text
Title                                    : English
Language                                 : English
Default                                  : No
Forced                                   : No


Menu
00:00:00.000                             : en:Chapter 1
00:05:19.042                             : en:Chapter 2
00:15:21.333                             : en:Chapter 3
00:24:01.625                             : en:Chapter 4
00:34:30.917                             : en:Chapter 5
00:42:37.250                             : en:Chapter 6
00:52:48.167                             : en:Chapter 7
01:01:46.500                             : en:Chapter 8
01:08:01.792                             : en:Chapter 9
01:18:17.042                             : en:Chapter 10
01:34:24.750                             : en:Chapter 11
01:41:10.500                             : en:Chapter 12












***:: Part :1 ::***
***:: Part :2 ::***
***:: Part :3 ::***
***:: Part :4 ::***
***:: Part :5 ::***

RAR Password : ONE3UP.COM
ขึ้นไปข้างบน Go down
ดูข้อมูลส่วนตัว http://free4you.thai-forum.net
 
[MINI-HD] EFFIE GRAY (2014) เอฟฟี่ เกรย์ ขีดชะตารักให้โลกรู้ [1080P HQ] [เสียงไทยมาสเตอร์ 5.1 + ENG DTS] [บรรยายไทย + อังกฤษ]
อ่านหัวข้อก่อนหน้า อ่านหัวข้อถัดไป ขึ้นไปข้างบน 
หน้า 1 จาก 1

Permissions in this forum:คุณไม่สามารถพิมพ์ตอบ
Free 4 You :: Movie :: โหลดหนัง-
ไปที่: