Free 4 You
ประกาศ!!! สำหรับท่านที่เข้ามาชมนะครับ ต้องสมัครสมาชิกและ Login เข้ามาก่อน ถึงจะสามารถกดลิงค์เพื่อโหลดได้นะครับ

จึงเรียนมาเพื่อทราบโดยทั่วกัน...

ช่วยกันกดไลค์เพจด้วยนะจ้าา จะได้ไว้ติดตามข่าวสารเน้ออ

>> https://www.facebook.com/pages/Free4You/112009912484692 <<

Free 4 You

โหลดการ์ตูน อ่านการ์ตูน โหลดหนัง ฟรี!!
 
บ้านCalendarช่วยเหลือค้นหารายชื่อสมาชิกกลุ่มผู้ใช้สมัครสมาชิก(Register)เข้าสู่ระบบ(Log in)

Share | 
 

 [SUPER MINI-HD] ONCE UPON A TIME IN SHANGHAI (2014) อึ้ง ทึ่ง สู้ [720P] [เสียงไทยมาสเตอร์ 5.1 + ENG 5.1] [บรรยายไทย + อังกฤษ]

อ่านหัวข้อก่อนหน้า อ่านหัวข้อถัดไป Go down 
ผู้ตั้งข้อความ
Admin
Administrators
Administrators
avatar

จำนวนข้อความ : 294
Join date : 25/08/2015

ตั้งหัวข้อเรื่อง: [SUPER MINI-HD] ONCE UPON A TIME IN SHANGHAI (2014) อึ้ง ทึ่ง สู้ [720P] [เสียงไทยมาสเตอร์ 5.1 + ENG 5.1] [บรรยายไทย + อังกฤษ]   Wed Aug 26, 2015 12:08 pm



“หม่าหย่งเจิน” (ฟิลิป อึ้ง) เดินทางมาที่เซี่ยงไฮ้ที่กำลังรุ่งเรื่องถึงขีดสุด เขาโตมาพร้อมกับศิลปะการต่อสู้ และมือขวาอันหนักหน่วงถึงกับขนาดที่ต้องใส่กำไรเพื่อรั้งพลังหมัดของเขาไว้ เขาตั้งใจมาที่นี่เพื่อศักดิ์ศรีและการอยู่รอดจึงได้เริ่มต้นขึ้น!!!
Format                                   : Matroska
Format version                           : Version 4 / Version 2
File size                                : 1.48 GiB
Duration                                 : 1h 35mn
Overall bit rate                         : 2 231 Kbps
Movie name                               : {MINI}_Once.Upon.a.Time.in.Shanghai.2014.720p.BrRip.AC3.x264.CtHts – PORSC
Encoded date                             : UTC 2010-02-22 21:41:31
Writing application                      : mkvmerge v5.9.0 ( On The Loose ) built on Dec  9 2012 15:37:01
Writing library                          : libebml v1.3.0 + libmatroska v1.4.0


Video
ID                                       : 1
Format                                   : AVC
Format/Info                              : Advanced Video Codec
Format profile                           : High@L3.1
Format settings, CABAC                   : Yes
Format settings, ReFrames                : 4 frames
Codec ID                                 : V_MPEG4/ISO/AVC
Duration                                 : 1h 35mn
Bit rate                                 : 1 303 Kbps
Width                                    : 1 280 pixels
Height                                   : 544 pixels
Display aspect ratio                     : 2.35:1
Original display aspect ratio            : 2.35:1
Frame rate mode                          : Constant
Frame rate                               : 24.000 fps
Color space                              : YUV
Chroma subsampling                       : 4:2:0
Bit depth                                : 8 bits
Scan type                                : Progressive
Bits/(Pixel*Frame)                       : 0.078
Stream size                              : 920 MiB (61%)
Title                                    : {MINI}_Once.Upon.a.Time.in.Shanghai.2014.720p.BrRip.AC3.x264.CtHts – PORSC
Writing library                          : x264 core 130 r2273 b3065e6
Encoding settings                        : cabac=1 / ref=3 / deblock=1:0:0 / analyse=0x3:0x113 / me=umh / subme=9 / psy=1 / psy_rd=1.00:0.00 / mixed_ref=1 / me_range=16 / chroma_me=1 / trellis=1 / 8x8dct=1 / cqm=0 / deadzone=21,11 / fast_pskip=1 / chroma_qp_offset=-2 / threads=10 / lookahead_threads=1 / sliced_threads=0 / nr=0 / decimate=1 / interlaced=0 / bluray_compat=0 / constrained_intra=0 / bframes=3 / b_pyramid=2 / b_adapt=1 / b_bias=0 / direct=1 / weightb=1 / open_gop=0 / weightp=2 / keyint=240 / keyint_min=24 / scenecut=40 / intra_refresh=0 / rc_lookahead=40 / rc=2pass / mbtree=1 / bitrate=1303 / ratetol=1.0 / qcomp=0.60 / qpmin=0 / qpmax=69 / qpstep=4 / cplxblur=20.0 / qblur=0.5 / ip_ratio=1.40 / aq=1:1.00
Language                                 : English
Default                                  : Yes
Forced                                   : No


Audio #1
ID                                       : 2
Format                                   : AC-3
Format/Info                              : Audio Coding 3
Mode extension                           : CM (complete main)
Format settings, Endianness              : Big
Codec ID                                 : A_AC3
Duration                                 : 1h 35mn
Bit rate mode                            : Constant
Bit rate                                 : 384 Kbps
Channel(s)                               : 6 channels
Channel positions                        : Front: L C R, Side: L R, LFE
Sampling rate                            : 48.0 KHz
Bit depth                                : 16 bits
Compression mode                         : Lossy
Stream size                              : 261 MiB (17%)
Title                                    : Thai DVD Master
Language                                 : Thai
Default                                  : Yes
Forced                                   : Yes


Audio #2
ID                                       : 3
Format                                   : AC-3
Format/Info                              : Audio Coding 3
Mode extension                           : CM (complete main)
Format settings, Endianness              : Big
Codec ID                                 : A_AC3
Duration                                 : 1h 35mn
Bit rate mode                            : Constant
Bit rate                                 : 448 Kbps
Channel(s)                               : 6 channels
Channel positions                        : Front: L C R, Side: L R, LFE
Sampling rate                            : 48.0 KHz
Bit depth                                : 16 bits
Compression mode                         : Lossy
Stream size                              : 304 MiB (20%)
Title                                    : Chinese AC3 5.1
Language                                 : Chinese
Default                                  : No
Forced                                   : No


Text #1
ID                                       : 4
Format                                   : VobSub
Codec ID                                 : S_VOBSUB
Codec ID/Info                            : The same subtitle format used on DVDs
Title                                    : Thai 480p From DVD Master
Language                                 : Thai
Default                                  : No
Forced                                   : No


Text #2
ID                                       : 5
Format                                   : VobSub
Codec ID                                 : S_VOBSUB
Codec ID/Info                            : The same subtitle format used on DVDs
Title                                    : Thai 720p
Language                                 : Thai
Default                                  : No
Forced                                   : No


Text #3
ID                                       : 6
Format                                   : VobSub
Codec ID                                 : S_VOBSUB
Codec ID/Info                            : The same subtitle format used on DVDs
Title                                    : Thai 1080p
Language                                 : Thai
Default                                  : Yes
Forced                                   : Yes


Text #4
ID                                       : 7
Format                                   : VobSub
Codec ID                                 : S_VOBSUB
Codec ID/Info                            : The same subtitle format used on DVDs
Title                                    : Thai 1080p Yellow
Language                                 : Thai
Default                                  : No
Forced                                   : No


Text #5
ID                                       : 8
Format                                   : VobSub
Codec ID                                 : S_VOBSUB
Codec ID/Info                            : The same subtitle format used on DVDs
Title                                    : Thai 1080p Out
Language                                 : Thai
Default                                  : No
Forced                                   : No


Text #6
ID                                       : 9
Format                                   : VobSub
Codec ID                                 : S_VOBSUB
Codec ID/Info                            : The same subtitle format used on DVDs
Title                                    : Thai 1080p BIG
Language                                 : Thai
Default                                  : No
Forced                                   : No


Text #7
ID                                       : 10
Format                                   : VobSub
Codec ID                                 : S_VOBSUB
Codec ID/Info                            : The same subtitle format used on DVDs
Title                                    : Thai 1080p Out [BIG]
Language                                 : Thai
Default                                  : No
Forced                                   : No


Text #8
ID                                       : 11
Format                                   : PGS
Codec ID                                 : S_HDMV/PGS
Codec ID/Info                            : The same subtitle format used on BDs/HD-DVDs
Title                                    : Thai PGS
Language                                 : Thai
Default                                  : No
Forced                                   : No


Text #9
ID                                       : 12
Format                                   : PGS
Codec ID                                 : S_HDMV/PGS
Codec ID/Info                            : The same subtitle format used on BDs/HD-DVDs
Title                                    : Thai PGS Yellow
Language                                 : Thai
Default                                  : No
Forced                                   : No


Text #10
ID                                       : 13
Format                                   : PGS
Codec ID                                 : S_HDMV/PGS
Codec ID/Info                            : The same subtitle format used on BDs/HD-DVDs
Title                                    : Thai PGS Out
Language                                 : Thai
Default                                  : No
Forced                                   : No


Text #11
ID                                       : 14
Format                                   : VobSub
Codec ID                                 : S_VOBSUB
Codec ID/Info                            : The same subtitle format used on DVDs
Title                                    : English
Language                                 : English
Default                                  : No
Forced                                   : No


Screenshot (แคปจากตัวไฟล์)










***:: Part :1 ::***
***:: Part :2 ::***


RAR Password : ONE3UP.COM
ขึ้นไปข้างบน Go down
ดูข้อมูลส่วนตัว http://free4you.thai-forum.net
 
[SUPER MINI-HD] ONCE UPON A TIME IN SHANGHAI (2014) อึ้ง ทึ่ง สู้ [720P] [เสียงไทยมาสเตอร์ 5.1 + ENG 5.1] [บรรยายไทย + อังกฤษ]
อ่านหัวข้อก่อนหน้า อ่านหัวข้อถัดไป ขึ้นไปข้างบน 
หน้า 1 จาก 1

Permissions in this forum:คุณไม่สามารถพิมพ์ตอบ
Free 4 You :: Movie :: โหลดหนัง-
ไปที่: